#TITLE:Where Have U Been;
#SUBTITLE:Expi3nze;
#ARTIST:Rihanna;
#TITLETRANSLIT:;
#SUBTITLETRANSLIT:;
#ARTISTTRANSLIT:;
#CREDIT:;
#BANNER:bn.png;
#BACKGROUND:bg.png;
#LYRICSPATH:;
#CDTITLE:cdtitle.png;
#MUSIC:Where Have U Been.mp3;
#OFFSET:-0.040;
#SAMPLESTART:100.000;
#SAMPLELENGTH:12.000;
#SELECTABLE:YES;
#BPMS:0.000=128.005,1.000=127.999,8.000=128.005,9.000=127.999,16.000=128.005,17.000=127.999,24.000=128.005,25.000=127.999,32.000=128.005,33.000=127.999,40.000=128.005,41.000=127.999,48.000=128.005,49.000=127.999,56.000=128.005,57.000=127.999,64.000=128.005,65.000=127.999,72.000=128.005,73.000=127.999,80.000=128.005,81.000=127.999,88.000=128.005,89.000=127.999,96.000=128.005,97.000=127.999,105.000=128.005,106.000=127.999,113.000=128.005,114.000=127.999,121.000=128.005,122.000=127.999,129.000=255.998,131.000=256.023,132.000=255.998,147.000=256.023,148.000=255.998,163.000=256.023,164.000=255.998,179.000=256.023,180.000=255.998,185.000=64.001,186.000=127.999,187.000=128.005,188.000=127.999,195.000=128.005,196.000=127.999,203.000=128.005,204.000=127.999,211.000=128.005,212.000=127.999,219.000=128.005,220.000=127.999,227.000=128.005,228.000=127.999,236.000=128.005,237.000=127.999,244.000=128.005,245.000=127.999,252.000=128.005,253.000=127.999,260.000=128.005,261.000=127.999,268.000=128.005,269.000=127.999,276.000=128.005,277.000=127.999,284.000=128.005,285.000=127.999,292.000=128.005,293.000=127.999,300.000=128.005,301.000=127.999,308.000=128.005,309.000=127.999,316.000=128.005,317.000=127.999;
#STOPS:;
#BGCHANGES:;
// cache tags:
#FIRSTBEAT:1.000;
#LASTBEAT:316.000;
#SONGFILENAME:Songs/Expi3nze 4th Collection/Where Have U Been (Rihana)/Where Have U Been.sm;
#HASMUSIC:1;
#HASBANNER:1;
#MUSICLENGTH:137.851;
// end cache tags

//---------------dance-single - ----------------
#NOTES:
     dance-single:
     :
     Hard:
     18:
     0.918,1.000,0.921,1.000,0.341,579.000,127.000,171.000,0.000,132.000:
0000
0000
0000
0000
0001
0010
0100
0001
0010
0100
0001
0000
0100
0000
0100
0000
,
0101
0000
0001
0000
0100
0000
0010
0100
0010
0000
0100
0000
0101
0000
0100
0000
,
0001
0000
0100
0000
1000
0100
0010
0001
1000
0000
1000
0000
1010
0000
0010
0000
,
2000
0000
0000
0000
3010
0000
1000
0100
0010
0000
1000
0000
0010
0000
1000
0000
,
0010
1001
1001
1001
,
1001
1001
1001
1001
,
1001
1001
1001
1001
,
1001
1001
1001
1001
,
1001
0000
0000
0000
1001
0000
1000
1000
0100
0000
1000
0000
0001
0000
0001
0100
,
0001
0000
0001
0000
1000
0000
1000
1000
0100
0000
1000
0000
0010
0000
1000
1000
,
0001
0000
1000
0000
0001
0000
0100
0010
1000
0000
0100
0000
0001
0000
1000
1000
,
0100
0000
1000
0000
0001
0000
0100
0010
1000
0000
0100
0000
0001
0000
1000
1000
,
0100
0000
1000
0000
0010
0000
0001
0010
0100
0000
0010
0000
1000
0000
1000
0010
,
1000
0000
1000
0000
0010
0000
0001
0010
0100
0000
0010
0000
1000
0000
1000
1000
,
0100
0000
1000
0000
0010
0000
0001
0010
0100
0000
0010
0000
1000
0000
1000
0100
,
1000
1000
0200
2300
3020
0230
0010
2300
,
0010
0000
3000
0000
2000
0000
0001
0001
0200
0000
0001
0000
0311
0000
0001
0000
,
0200
0000
0001
0000
0311
0000
0001
0001
0200
0000
0001
0000
0311
0000
0001
0000
,
0200
0000
0001
0000
3311
0000
0001
0001
0200
0000
0001
0000
0311
0000
0001
0000
,
0200
0000
0001
0000
2321
0000
0001
0001
0032
0000
0010
0000
0203
0000
0011
0000
,
0321
0000
0000
0000
3231
0000
0001
0001
2000
0000
0001
0000
3011
0000
0001
0000
,
2000
0000
0001
0000
3011
0000
0001
0001
2000
0000
0001
0000
3311
0000
0001
0000
,
2000
0000
0001
0000
3011
0000
0001
0001
2000
0000
0001
0000
3011
0000
0001
0000
,
2010
0010
3010
0001
2010
0010
3012
0000
,
0203
0000
0010
0000
2310
0000
0000
0010
0000
0000
0010
0000
0101
0000
0000
0010
,
0000
0000
0010
0000
3020
0000
0000
1000
0000
0000
1000
0000
1200
0000
0000
1000
,
0000
0000
1000
0000
1332
0000
0000
1000
0000
0000
1000
0000
1010
0000
0000
1000
,
0000
0000
1000
0000
2003
0000
0000
0010
0000
0000
0010
0000
0210
0000
0000
0010
,
0300
0000
0210
0000
0320
0000
0032
0000
3103
0000
0100
0000
0101
0000
0000
0100
,
1010
0000
0100
0000
0100
0000
0000
0001
1100
0000
1000
0000
0010
0000
0000
0100
,
1010
0000
0100
0000
0100
0000
0000
0010
0000
0000
0012
0000
0213
0000
0302
0010
,
0103
0000
0012
0000
0213
0000
0302
0010
0103
0000
0012
0000
0213
0000
0302
0010
,
0103
0010
2010
0000
0000
0020
0000
0000
,
0230
0000
3322
0000
0030
0020
0000
0000
,
2030
0000
3223
0000
0300
2000
0000
0000
,
3200
0000
2332
0000
0003
0200
0000
0000
,
0320
0000
3232
0000
0300
0200
0000
0000
,
0320
0000
2233
0000
0300
0200
0000
0000
,
0302
0000
3223
0000
0300
0200
0000
0000
,
0302
0000
2233
0000
0300
0200
0000
0000
,
0302
0000
3223
0000
0030
0020
0000
0000
,
2030
0000
3322
0000
0003
2000
0000
0000
,
3002
0000
2233
0000
0300
0200
0000
0000
,
0320
0000
3232
0000
0003
2000
0000
0000
,
3020
0000
2332
0000
3000
2000
0000
0000
,
3200
0000
2323
0000
0030
0020
0000
0000
,
0230
0000
0000
0000
3310
0000
0000
0000
0010
0000
0010
0100
0010
1000
0100
0010
,
0100
0000
0001
0010
0101
0010
1000
0100
0010
0000
2000
0000
3020
0000
2030
0000
,
3010
0000
0100
0010
0101
0010
1000
0100
0010
0000
2000
0000
3020
0000
2030
0000
,
3010
0000
1000
0100
0011
1000
0100
0010
0100
0000
0020
0000
0032
0000
2003
0000
,
3010
0000
0100
0010
1001
0100
0010
1000
0100
0000
0002
0000
0203
0000
0302
0000
,
0103
0000
0001
0010
0101
0010
1000
0100
0010
0000
2000
0000
3211
0000
0321
0000
,
0031
0000
0100
0010
1001
0100
1000
0010
0100
0000
0020
0000
1231
0000
2301
0000
,
3001
0000
1000
0100
1010
0100
0010
1000
0100
0000
0020
0000
1132
0000
1203
0000
,
1300
0000
0010
0010
0100
0010
1000
0100
0010
0000
1000
0100
0010
0000
0101
0000
,
2101
0000
0101
0100
0101
0000
0101
0100
,
3102
0000
0000
0200
0013
0000
0020
0300
0001
0000
0230
0000
0011
0000
0002
0000
,
2310
0203
3012
0020
1303
0000
1001
1000
,
1001
0000
1001
1000
1032
0000
1003
1000
,
1012
0000
2010
0010
0013
0000
0100
0100
,
0101
0000
3101
0100
0102
0000
0103
0100
,
0102
0000
2103
0100
0101
0000
0020
0230
,
0301
0000
0002
0000
3203
0000
0302
0000
0203
0000
0010
0000
0011
0000
0010
0001
,
2010
0000
0020
0001
0331
0000
0200
0001
,
3311
0000
0010
0001
2010
0000
0001
0000
3011
0000
0010
0001
2010
0000
0001
0000
,
3011
0000
0010
0001
2010
0000
0001
0000
3011
0000
0010
0001
2010
0000
0001
0000
,
3211
0001
0321
0000
2031
0000
3012
0000
,
0013
0000
0010
0001
2210
0000
0010
0000
0301
0000
0010
0001
0210
0000
0010
0000
,
0301
0000
0010
0001
3210
0000
0010
0000
0301
0000
0010
0001
2210
0000
0010
0000
,
0301
0000
0010
0001
0210
0000
0010
0000
0301
0000
0010
0000
3210
0000
0000
0000
,
0320
2030
3020
0230
,
0301
0010
0100
0001
0010
0100
0001
0000
0100
0000
0100
0000
0101
0000
0001
0000
,
0100
0000
0010
0100
0010
0000
0100
0000
0101
0000
0100
0000
0001
0000
0100
0000
,
1000
0100
0010
0001
1000
0000
1000
0000
1010
0000
0010
0000
2000
0000
0000
0000
,
3010
0000
1000
0100
0010
0000
1000
0000
0010
0000
1000
0000
0010
0000
0000
0000
,
1000
0100
0010
1000
0100
0000
1000
0000
0010
0000
0100
0000
0200
0000
0000
0000
,
0310
0000
0010
0100
0010
0000
0100
0000
0100
0000
0010
0000
1000
0000
0000
0000
,
1000
0000
1000
0100
0010
0000
1000
0000
1010
0000
0000
0000
1010
0000
0000
0000
,
0010
0000
0100
0010
0000
0000
0200
0000
0020
0000
0300
0000
0000
0000
0000
0000
,
0030
0000
0000
0000
,
0000
0000
0000
0000
;
